Tere Mere Beach Mein 12th September 12 Part 1 2009 [5th Episode] Irfan Pathan & Yusuf Pathan TMBM

HIT2020.com Karina Kapur & Imran Khan Tere Mere Beach Mein 12th September 12 Part 1 2009 [5th Episode] Tere Mere Beach Mein www.HIT2020.com TMBM sach ka saamna 2009 sach ka saamna realty tv show Sach Ka Saamna star tv show Raja Chaudhary 12th September 6 Part 1,Sach Ka Saamna star tv show Raja Chaudhary September […]

HIT2020.com Karina Kapur & Imran Khan Tere Mere Beach Mein 12th September 12 Part 1 2009 [5th Episode] Tere Mere Beach Mein www.HIT2020.com TMBM sach ka saamna 2009 sach ka saamna realty tv show Sach Ka Saamna star tv show Raja Chaudhary 12th September 6 Part 1,Sach Ka Saamna star tv show Raja Chaudhary September 6 Part 2, A To Z Hollywood Bollywood TAMIL Movies Treilaer Promo 2109 TELUGU PUNJABI MALAYALAM MOVIES WATCH FREE ONLINE sach ka saamana .sack ka saamna 2109 ,sach ka saamna tv show …

Lift Kara De – Celebrity List

Celebrity List (in alphabetical order) Total 20:
1. A. R. Rahman
2. Akshay Kumar
3. Amitabh Bachchan
4. Bipasha Basu
5. Deepika Padukone
6. Dharmendra
7. Hrithik Roshan
8. John Abraham
9. Kajol
10. Kareena Kapoor
11. Katrina Kaif
12. Lata Mangeshkar
13. Preity zinta
14. Priyanka chopra
15. Ranbeer Kapoor

16. Rani Mukherjee
17. Salman Khan
18. Sanjay Dutt
19. Shahid kapoor
20. Shahrukh KhanSimilar Posts:

Shahid Kapoor is single and ready to mingle
About the […]

Celebrity List (in alphabetical order) Total 20:

1. A. R. Rahman
2. Akshay Kumar
3. Amitabh Bachchan
4. Bipasha Basu
5. Deepika Padukone
6. Dharmendra
7. Hrithik Roshan
8. John Abraham
9. Kajol
10. Kareena Kapoor
11. Katrina Kaif
12. Lata Mangeshkar
13. Preity zinta
14. Priyanka chopra
15. Ranbeer Kapoor


16. Rani Mukherjee
17. Salman Khan
18. Sanjay Dutt
19. Shahid kapoor
20. Shahrukh KhanSimilar Posts:

Raat Gayi Baat Gayi (2010)

Starring:

Rajat Kapoor – Rahul
Vinay Pathak – Amit
Neha Dhupia – Sophia
Iravati Harshe – Mitali
Navneet Nishan – Jolly

Director:

Saurabh Shukla
PLz Click On The Ads For Make My Site Better

Watch Full Movie

Watch On Dailymotion

Watch Part 1
Watch Part 2
Watch Part 3
Watch Part 4
Watch Part 5
Watch Part 6

Starring:

Rajat Kapoor – Rahul
Vinay Pathak – Amit
Neha Dhupia – Sophia
Iravati Harshe – Mitali
Navneet Nishan – Jolly

Director:

Saurabh Shukla
PLz Click On The Ads For Make My Site Better

Watch Full Movie

Watch On Dailymotion

Watch Part 1
Watch Part 2
Watch Part 3
Watch Part 4
Watch Part 5
Watch Part 6

Chance Pe Dance 2010 PDVDr.New.Source (Team DUS)

Info :VideoID : 0Format : MPEG-4 VisualFormat profile : Advanced Simple@L5Format settings, BVOP : YesFormat settings, QPel : NoFormat settings, GMC …

Info :

Video
ID : 0
Format : MPEG-4 Visual
Format profile : Advanced Simple@L5
Format settings, BVOP : Yes
Format settings, QPel : No
Format settings, GMC : No warppoints
Format settings, Matrix : Default (H.263)
Muxing mode : Packed bitstream
Codec ID : XVID
Codec ID/Hint : XviD
Duration : 1h 48mn
Bit rate : 795 Kbps
Width : 640 pixels
Height : 272 pixels
Display aspect ratio : 2.2:1
Frame rate : 25.000 fps
Resolution : 8 bits
Scan type : Progressive
Bits/(Pixel*Frame) : 0.183
Stream size : 619 MiB (89%)
Writing library : XviD 1.1.2 (UTC 2006-11-01)

Audio
ID : 1
Format : MPEG Audio
Format version : Version 1
Format profile : Layer 3
Mode : Joint stereo
Codec ID : 55
Codec ID/Hint : MP3
Duration : 1h 48mn
Bit rate mode : Variable
Bit rate : 91.8 Kbps
Nominal bit rate : 96.0 Kbps
Channel(s) : 2 channels
Sampling rate : 32.0 KHz
Stream size : 71.5 MiB (10%)
Alignment : Aligned on interleaves
Interleave, duration : 36 ms (0.90 video frame)
Interleave, preload duration : 461 ms

Rippers Note: The last Rip was from my own Pdvd this one is from the pdvd of dus ka sher, this is a diffrent source than mine so I have made another rip…

screens :


Rapidshare

http://rapidshare.com/files/328600648/CPD.10.New.Source.PDvDRip.2CD.By.TeamDUS.part1.rar
http://rapidshare.com/files/328600575/CPD.10.New.Source.PDvDRip.2CD.By.TeamDUS.part2.rar
http://rapidshare.com/files/328602171/CPD.10.New.Source.PDvDRip.2CD.By.TeamDUS.part3.rar
http://rapidshare.com/files/328600514/CPD.10.New.Source.PDvDRip.2CD.By.TeamDUS.part4.rar
http://rapidshare.com/files/328600442/CPD.10.New.Source.PDvDRip.2CD.By.TeamDUS.part5.rar
http://rapidshare.com/files/328601051/CPD.10.New.Source.PDvDRip.2CD.By.TeamDUS.part6.rar
http://rapidshare.com/files/328600534/CPD.10.New.Source.PDvDRip.2CD.By.TeamDUS.part7.rar
http://rapidshare.com/files/328600388/CPD.10.New.Source.PDvDRip.2CD.By.TeamDUS.part8.rar